<svg xmlns="http://www.w3.org/2000/svg">
<defs>
<font
   id="FontID0"
   font-variant="normal"
   font-style="normal"
   font-weight="400"
   style="font-style:normal;font-variant:normal;font-weight:400;fill-rule:nonzero"
   horiz-origin-x="0"
   horiz-origin-y="0"
   horiz-adv-x="90"
   vert-origin-x="45"
   vert-origin-y="90"
   vert-adv-y="90">
	<font-face
   font-family="Arial"
   id="font-face7">
	</font-face>
   <missing-glyph
   id="missing-glyph9"><path
     d="M0 0z"
     id="path11" /></missing-glyph>
   <glyph
   unicode=" "
   horiz-adv-x="277"
   id="glyph13" />
   <glyph
   unicode="5"
   horiz-adv-x="556"
   id="glyph15"><path
     d="M41.4925 187.513l92.3393 7.83077c6.83864,-45.0004 22.6773,-78.662 47.5161,-101.339 24.9805,-22.6773 54.9926,-34.016 90.1424,-34.016 42.3429,0 78.166,16.0159 107.328,47.835 29.3388,31.9963 44.0082,74.3392 44.0082,126.993 0,50.1736 -13.9962,89.6818 -42.1657,118.666 -28.1695,29.0199 -64.9848,43.5122 -110.658,43.5122 -28.3467,0 -53.8233,-6.4843 -76.6778,-19.3112 -22.8191,-12.8623 -40.6421,-29.516 -53.6461,-50.0319l-82.5243 10.6654 69.3431 367.692 355.999 0 0 -84.0125 -285.664 0 -38.6578 -192.332c42.9807,30.012 88.1582,45.0004 135.32,45.0004 62.5044,0 115.158,-21.6498 158.174,-64.9848 42.9807,-43.335 64.4887,-99.0008 64.4887,-166.997 0,-64.843 -18.9923,-120.863 -56.6579,-168.025 -45.9925,-57.8272 -108.674,-86.8117 -188.009,-86.8117 -65.1619,0 -118.312,18.1419 -159.486,54.6382 -41.1736,36.5318 -64.6659,84.8629 -70.5124,145.029z"
     id="path17" /></glyph>
   <glyph
   unicode="0"
   horiz-adv-x="556"
   id="glyph19"><path
     d="M41.4925 352.987c0,84.6857 8.68117,152.859 26.1852,204.344 17.3269,51.6618 43.335,91.4889 77.6699,119.517 34.3349,27.9923 77.4927,41.9885 129.473,41.9885 38.5161,0 72.1777,-7.83077 101.162,-23.3506 29.0199,-15.3072 52.8666,-37.6657 71.8588,-66.8273 18.8151,-29.1616 33.6617,-64.6659 44.3271,-106.477 10.8426,-41.8468 16.1576,-98.1858 16.1576,-169.194 0,-83.977 -8.64574,-151.655 -25.8309,-203.317 -17.3269,-51.6618 -43.1578,-91.4889 -77.4927,-119.658 -34.3349,-28.1695 -77.6699,-42.1657 -130.182,-42.1657 -68.9887,0 -123.166,24.6616 -162.497,74.162 -47.1618,59.4926 -70.8313,156.651 -70.8313,290.979zm90.355 0c0,-117.497 13.819,-195.663 41.3153,-234.64 27.4963,-38.835 61.3351,-58.3587 101.658,-58.3587 40.5003,0 74.3392,19.6655 101.835,58.6776 27.4963,39.0121 41.3507,117.178 41.3507,234.321 0,117.851 -13.8544,196.194 -41.3507,234.852 -27.4963,38.835 -61.654,58.1461 -102.65,58.1461 -40.5003,0 -72.6738,-17.1497 -96.8393,-51.3075 -30.1538,-43.5122 -45.3193,-124.194 -45.3193,-241.691z"
     id="path21" /></glyph>
   <glyph
   unicode="1"
   horiz-adv-x="556"
   id="glyph23"><path
     d="M372.511 0l-87.8393 0 0 559.989c-21.1891,-20.1616 -48.8272,-40.3232 -83.1621,-60.4847 -34.5121,-20.1616 -65.3391,-35.327 -92.6936,-45.3547l0 84.8629c49.1815,23.138 92.1976,51.1658 129.013,83.977 36.6735,33.0239 62.8233,64.843 78.166,95.8472l56.5162 0 0 -718.836z"
     id="path25" /></glyph>
   <glyph
   unicode="H"
   horiz-adv-x="722"
   id="glyph27"><path
     d="M80.0085 0l0 715.825 94.8196 0 0 -294.002 372.003 0 0 294.002 94.8433 0 0 -715.825 -94.8433 0 0 337.325 -372.003 0 0 -337.325 -94.8196 0z"
     id="path29" /></glyph>
   <glyph
   unicode="]"
   horiz-adv-x="277"
   id="glyph31"><path
     d="M212.836 -198.663l-193.844 0 0 72.662 106.017 0 0 768.998 -106.017 0 0 72.8273 193.844 0 0 -914.488z"
     id="path33" /></glyph>
   <glyph
   unicode="["
   horiz-adv-x="277"
   id="glyph35"><path
     d="M67.8431 -198.663l0 914.488 193.82 0 0 -72.8273 -105.828 0 0 -768.998 105.828 0 0 -72.662 -193.82 0z"
     id="path37" /></glyph>
   <glyph
   unicode="R"
   horiz-adv-x="722"
   id="glyph39"><path
     d="M78.662 0l0 715.825 317.341 0c63.8273,0 112.324,-6.49611 145.489,-19.323 33.1656,-12.8269 59.6698,-35.5042 79.6778,-68.0084 19.8191,-32.6695 29.6695,-68.6698 29.6695,-108.001 0,-50.835 -16.3466,-93.4968 -49.3468,-128.316 -32.8349,-34.8428 -83.67,-57.0004 -152.316,-66.5202 25.1577,-12.0001 44.15,-23.8112 57.1658,-35.6459 27.6616,-25.3467 53.8351,-57.1658 78.662,-95.174l124.489 -194.836 -119.151 0 -94.6779 149.009c-27.6616,42.8271 -50.5043,75.8274 -68.5045,98.4811 -17.8348,22.8427 -33.827,38.835 -48.0004,47.835 -14.1497,9.16543 -28.4884,15.5198 -43.1578,19.1813 -10.8426,2.14962 -28.3467,3.33073 -52.8429,3.33073l-109.82 0 0 -317.837 -94.6779 0zm94.6779 399.83l203.671 0c43.1578,0 77.1502,4.51185 101.481,13.5119 24.4963,9.00007 43.0161,23.3151 55.6776,42.9925 12.6615,19.6773 18.9923,41.0082 18.9923,64.158 0,33.8507 -12.1655,61.6777 -36.8271,83.5046 -24.4963,21.8269 -63.3312,32.6695 -116.505,32.6695l-226.49 0 0 -236.837z"
     id="path41" /></glyph>
   <glyph
   unicode="T"
   horiz-adv-x="610"
   id="glyph43"><path
     d="M259.325 0l0 631.328 -235.821 0 0 84.4967 567.335 0 0 -84.4967 -236.837 0 0 -631.328 -94.6779 0z"
     id="path45" /></glyph>
   <glyph
   unicode="m"
   horiz-adv-x="832"
   id="glyph47"><path
     d="M66.0005 0l0 518.508 78.4967 0 0 -72.6856c16.3466,25.3467 38.0082,45.8508 65.0084,61.1816 27.0002,15.4962 57.8272,23.3388 92.3393,23.3388 38.3153,0 69.8273,-8.00794 94.3236,-24.0002 24.6616,-16.0159 42.0003,-38.1735 51.9925,-66.8509 41.1736,60.5202 94.5126,90.8511 160.182,90.8511 51.4965,0 90.9928,-14.3387 118.654,-42.8507 27.6616,-28.4884 41.5043,-72.3313 41.5043,-131.481l0 -356.011 -87.3314 0 0 326.672c0,35.1499 -2.83467,60.4965 -8.504,75.9927 -5.83469,15.3308 -16.1576,27.827 -30.9924,37.3468 -15.0001,9.33078 -32.6695,14.1497 -52.8429,14.1497 -36.4964,0 -66.6619,-12.1655 -90.8275,-36.4964 -24.0002,-24.1655 -36.1656,-63.0005 -36.1656,-116.339l0 -301.325 -87.8275 0 0 336.829c0,39.1657 -7.18116,68.5045 -21.5199,87.9928 -14.3151,19.512 -37.6538,29.3388 -70.3234,29.3388 -24.6616,0 -47.5043,-6.49611 -68.5045,-19.6537 -21.0002,-13.0159 -36.331,-32.0081 -45.6618,-57.0004 -9.49614,-25.1813 -14.1733,-61.3469 -14.1733,-108.497l0 -269.01 -87.8275 0z"
     id="path49" /></glyph>
   <glyph
   unicode="d"
   horiz-adv-x="556"
   id="glyph51"><path
     d="M402.334 0l0 65.5045c-32.8349,-51.4965 -81.166,-77.1738 -144.993,-77.1738 -41.3389,0 -79.3471,11.3387 -114.001,34.1577 -34.6774,22.6773 -61.5123,54.5201 -80.6699,95.5047 -18.9923,40.8428 -28.512,87.6621 -28.512,140.836 0,51.6618 8.66936,98.6701 25.8427,140.836 17.3387,42.1657 43.1578,74.5045 77.6699,96.8275 34.4885,22.512 73.1581,33.8507 115.82,33.8507 31.1813,0 59.0083,-6.68509 83.3392,-19.8427 24.4963,-13.1576 44.3389,-30.3309 59.6698,-51.4965l0 256.821 87.3314 0 0 -715.825 -81.4967 0zm-277.845 258.829c0,-66.4966 14.008,-116.151 42.0003,-148.985 28.016,-32.8349 61.0162,-49.3468 99.1661,-49.3468 38.3389,0 71.0084,15.8269 97.8433,47.1736 26.8349,31.3231 40.3232,79.3235 40.3232,143.836 0,70.9848 -13.6537,123.001 -40.9846,156.167 -27.3309,33.331 -60.9926,49.8193 -101.174,49.8193 -39.0003,0 -71.6699,-15.9923 -97.8197,-47.835 -26.1734,-31.8191 -39.3546,-82.1581 -39.3546,-150.828z"
     id="path53" /></glyph>
   <glyph
   unicode="a"
   horiz-adv-x="556"
   id="glyph55"><path
     d="M404.342 63.9926c-32.6695,-27.6616 -64.0163,-47.15 -94.0165,-58.654 -30.1656,-11.3387 -62.4808,-17.008 -96.9929,-17.008 -57.0004,0 -100.654,13.8426 -131.34,41.6696 -30.4963,27.827 -45.8271,63.4966 -45.8271,106.678 0,25.4884 5.66934,48.6618 17.3387,69.662 11.504,21.0002 26.6695,37.8192 45.3311,50.5043 18.8269,12.6615 39.8271,22.323 63.3312,28.8191 17.1734,4.51185 43.1578,9.00007 78.0006,13.1812 71.0084,8.48038 123.332,18.4962 156.828,30.3309 0.330711,12.0001 0.496067,19.6537 0.496067,22.8191 0,35.8349 -8.31503,61.1816 -24.9923,75.662 -22.323,20.008 -55.843,29.8349 -99.9929,29.8349 -41.3389,0 -71.8352,-7.15754 -91.6779,-21.6616 -19.6537,-14.5041 -34.1577,-40.1578 -43.6539,-77.0085l-85.8432 11.8347c7.84258,36.6853 20.6695,66.5202 38.5042,89.0086 17.8348,22.6773 43.8429,40.1578 77.6699,52.3232 33.827,12.1891 72.9927,18.3545 117.662,18.3545 44.3389,0 80.1739,-5.33862 107.835,-15.6852 27.6616,-10.4883 48.0004,-23.4805 61.158,-39.331 13.0159,-15.8269 22.0159,-35.6696 27.3309,-59.8351 2.83467,-15.0001 4.34649,-42.0003 4.34649,-81.0006l0 -117.166c0,-81.8274 1.81891,-133.489 5.66934,-154.985 3.66145,-21.6616 11.1497,-42.4964 22.1577,-62.3391l-91.8432 0c-9.00007,18.1655 -15.0001,39.4964 -17.4805,63.9926zm-7.34651 196.348c-31.9845,-13.1812 -79.8195,-24.1655 -143.505,-33.331 -36.1656,-5.17327 -61.8194,-11.008 -76.6541,-17.5041 -15.0001,-6.49611 -26.6695,-16.0159 -34.6774,-28.6774 -8.14967,-12.4962 -12.3308,-26.3388 -12.3308,-41.6696 0,-23.4805 9.00007,-42.9925 26.6695,-58.654 17.6694,-15.4962 43.6775,-23.3388 77.8353,-23.3388 33.827,0 63.9926,7.32289 90.3314,22.1577 26.3388,14.8348 45.8271,35.1735 58.1579,60.8509 9.51976,19.8191 14.1733,49.1579 14.1733,87.8275l0 32.3388z"
     id="path57" /></glyph>
   <glyph
   unicode="n"
   horiz-adv-x="556"
   id="glyph59"><path
     d="M66.0005 0l0 518.508 78.9927 0 0 -73.6777c38.1735,57.0004 93.1661,85.5125 165.001,85.5125 31.3467,0 60.0005,-5.66934 86.1739,-16.8427 26.3388,-11.3387 45.8271,-26.0081 58.843,-44.3389 13.1576,-18.1655 22.1577,-39.8271 27.4963,-64.8194 3.16538,-16.3466 4.81894,-44.835 4.81894,-85.5125l0 -318.829 -87.9928 0 0 315.499c0,35.6696 -3.33073,62.5044 -10.1576,80.3392 -6.85045,17.6694 -19.0159,31.8191 -36.3546,42.331 -17.4805,10.6536 -37.8192,15.9923 -61.3233,15.9923 -37.4885,0 -69.662,-12.0001 -96.9929,-35.6696 -27.1656,-23.8348 -40.6775,-68.8352 -40.6775,-135.332l0 -283.16 -87.8275 0z"
     id="path61" /></glyph>
   <glyph
   unicode="k"
   horiz-adv-x="500"
   id="glyph63"><path
     d="M66.3312 0l0 715.825 87.9928 0 0 -408.169 208.017 210.852 113.67 0 -198.167 -192.332 218.317 -326.176 -108.497 0 -171.332 265.16 -62.0084 -59.6698 0 -205.49 -87.9928 0z"
     id="path65" /></glyph>
   <glyph
   unicode="o"
   horiz-adv-x="556"
   id="glyph67"><path
     d="M33.1656 259.325c0,96.0008 26.6695,167.175 80.1739,213.332 44.5043,38.3389 98.8354,57.6855 162.993,57.6855 71.3391,0 129.662,-23.3388 174.828,-70.1817 45.3311,-46.6539 67.8431,-111.166 67.8431,-193.49 0,-66.8273 -10.0158,-119.34 -30.0002,-157.513 -20.008,-38.3153 -49.1815,-67.9848 -87.3314,-89.1503 -38.3389,-21.1655 -80.0085,-31.6774 -125.34,-31.6774 -72.4966,0 -131.174,23.1734 -176.009,69.8273 -44.835,46.5122 -67.158,113.505 -67.158,201.167zm90.3314 0c0,-66.4966 14.5041,-116.151 43.5122,-149.151 28.9845,-33.1656 65.4808,-49.6776 109.324,-49.6776 43.6775,0 80.0085,16.6773 108.993,49.8429 28.8427,33.1656 43.3468,83.8353 43.3468,151.82 0,64.1816 -14.5041,112.843 -43.6775,145.844 -29.1735,33.0003 -65.3391,49.4886 -108.662,49.4886 -43.8429,0 -80.3392,-16.4883 -109.324,-49.3232 -29.0081,-32.8349 -43.5122,-82.5125 -43.5122,-148.844z"
     id="path69" /></glyph>
   <glyph
   unicode="c"
   horiz-adv-x="500"
   id="glyph71"><path
     d="M404.342 189.994l86.3156 -11.3387c-9.33078,-59.4808 -33.4963,-106.158 -72.4966,-139.82 -38.835,-33.6617 -86.67,-50.5043 -143.316,-50.5043 -70.8431,0 -128.009,23.1734 -171.001,69.4966 -43.1814,46.3468 -64.843,112.843 -64.843,199.513 0,55.9847 9.33078,105.001 27.827,147.001 18.6616,42.0003 46.8429,73.4888 84.8511,94.4889 37.8192,21.0002 79.1581,31.5121 123.662,31.5121 56.3154,0 102.497,-14.3387 138.166,-42.8507 35.8349,-28.4884 58.8194,-68.8352 69.0005,-121.324l-85.5125 -13.1576c-8.17329,34.8192 -22.4884,60.9926 -43.1578,78.662 -20.6695,17.5041 -45.6618,26.3388 -75.0006,26.3388 -44.3389,0 -80.3392,-15.8505 -108.001,-47.6697 -27.6616,-31.6774 -41.5043,-81.851 -41.5043,-150.497 0,-69.6856 13.3466,-120.355 40.1578,-152.009 26.6695,-31.5121 61.5123,-47.339 104.505,-47.339 34.5121,0 63.1659,10.6772 86.3393,31.8428 23.1734,21.1655 37.8428,53.6697 44.0082,97.6543z"
     id="path73" /></glyph>
   <glyph
   unicode="e"
   horiz-adv-x="556"
   id="glyph75"><path
     d="M420.83 167.009l90.8275 -11.1733c-14.3151,-53.1736 -40.8192,-94.3472 -79.4888,-123.662 -38.835,-29.1735 -88.3472,-43.8429 -148.513,-43.8429 -75.8274,0 -135.993,23.3388 -180.332,69.9927 -44.4807,46.6775 -66.6619,112.182 -66.6619,196.513 0,87.3314 22.512,154.985 67.347,203.175 45.0004,48.1657 103.158,72.3313 174.828,72.3313 69.3313,0 126.001,-23.6695 169.82,-70.8431 44.0082,-47.1736 66.0005,-113.67 66.0005,-199.159 0,-5.33862 -0.165356,-13.1812 -0.496067,-23.5041l-386.672 0c3.189,-57.0004 19.3466,-100.678 48.3547,-130.844 28.9845,-30.3309 64.9848,-45.4964 108.332,-45.4964 32.1499,0 59.6461,8.504 82.4888,25.512 22.8427,16.819 40.8428,43.8192 54.1658,81.0006zm-288.498 142.159l289.49 0c-3.8268,43.4885 -15.0001,76.3234 -33.1656,98.0086 -27.9923,33.827 -64.3233,50.835 -108.828,50.835 -40.3232,0 -74.3392,-13.5119 -101.835,-40.5121 -27.4963,-27.0002 -42.6618,-63.1659 -45.6618,-108.332z"
     id="path77" /></glyph>
   <glyph
   unicode="h"
   horiz-adv-x="556"
   id="glyph79"><path
     d="M66.0005 0l0 715.825 87.8275 0 0 -256.821c41.0082,47.5043 92.8354,71.3391 155.34,71.3391 38.3389,0 71.6699,-7.67723 99.9929,-22.8427 28.3467,-15.0001 48.6618,-36.0003 60.8509,-62.6698 12.1655,-26.6695 18.3309,-65.5045 18.3309,-116.174l0 -328.656 -88.0164 0 0 328.656c0,43.8429 -9.49614,75.851 -28.4884,95.8354 -19.0159,20.008 -45.9925,30.1656 -80.8353,30.1656 -26.0081,0 -50.5043,-6.82683 -73.5124,-20.3151 -22.9844,-13.5119 -39.331,-31.8428 -48.9925,-55.0162 -9.82685,-22.9844 -14.6694,-54.9926 -14.6694,-95.67l0 -283.656 -87.8275 0z"
     id="path81" /></glyph>
   <glyph
   unicode="g"
   horiz-adv-x="556"
   id="glyph83"><path
     d="M49.8429 -42.9925l85.4889 -12.6851c3.49609,-26.3152 13.5119,-45.4964 29.6695,-57.6619 21.8269,-16.1576 51.6618,-24.3309 89.3393,-24.3309 40.8192,0 72.1659,8.17329 94.3236,24.3309 22.1577,16.3466 36.9924,39.1657 44.835,68.3391 4.6772,18.0001 6.66147,55.4886 6.33076,112.843 -38.3389,-45.1657 -86.1739,-67.8431 -143.505,-67.8431 -71.3155,0 -126.497,25.6774 -165.497,77.1738 -39.0003,51.3311 -58.654,113.15 -58.654,184.986 0,49.5122 9.00007,95.174 26.8349,137.009 18.0001,41.835 43.9846,74.1738 78.0006,96.9929 33.9924,22.6773 73.9848,34.1814 119.836,34.1814 61.158,0 111.662,-24.8506 151.324,-74.3392l0 62.5044 81.166 0 0 -448.185c0,-80.6463 -8.33865,-138.001 -24.6616,-171.663 -16.5119,-33.6617 -42.4964,-60.3312 -78.166,-79.8195 -35.6696,-19.512 -79.5124,-29.3388 -131.67,-29.3388 -61.843,0 -111.828,14.008 -149.836,41.835 -38.1735,27.827 -56.5044,69.662 -55.1579,125.67zm72.662 311.483c0,-67.9848 13.4883,-117.662 40.6539,-148.82 27.0002,-31.3467 60.8509,-46.8429 101.505,-46.8429 40.3468,0 74.1738,15.4962 101.505,46.5122 27.3309,31.1577 41.0082,79.8195 41.0082,146.316 0,63.5202 -14.008,111.355 -42.1657,143.505 -28.1813,32.1735 -62.1737,48.3311 -101.835,48.3311 -39.0003,0 -72.1659,-15.8269 -99.6858,-47.6697 -27.3309,-31.6538 -40.9846,-78.8274 -40.9846,-141.332z"
     id="path85" /></glyph>
   <glyph
   unicode="i"
   horiz-adv-x="222"
   id="glyph87"><path
     d="M66.3312 614.674l0 101.15 87.9928 0 0 -101.15 -87.9928 0zm0 -614.674l0 518.508 87.9928 0 0 -518.508 -87.9928 0z"
     id="path89" /></glyph>
   <glyph
   unicode="p"
   horiz-adv-x="556"
   id="glyph91"><path
     d="M66.0005 -198.663l0 717.171 80.0085 0 0 -67.347c18.8269,26.3388 40.1578,46.1815 63.9926,59.339 23.6695,13.1576 52.4886,19.8427 86.3393,19.8427 44.3153,0 83.3156,-11.504 117.166,-34.1814 33.9924,-22.8191 59.5044,-54.9926 76.6541,-96.4968 17.3387,-41.5043 26.0081,-87.0007 26.0081,-136.489 0,-53.0083 -9.49614,-100.843 -28.6774,-143.34 -18.9923,-42.4964 -46.6539,-75.0006 -82.9849,-97.6779 -36.331,-22.4884 -74.5045,-33.827 -114.497,-33.827 -29.3388,0 -55.5122,6.1654 -78.851,18.4962 -23.3151,12.3308 -42.331,28.016 -57.3312,46.8429l0 -252.333 -87.8275 0zm79.4888 454.988c0,-66.6619 13.5119,-115.985 40.5121,-147.993 27.0002,-31.8428 59.8351,-47.835 98.174,-47.835 39.0003,0 72.4966,16.5119 100.324,49.6776 27.827,33.0003 41.835,84.166 41.835,153.497 0,66.1659 -13.6773,115.489 -40.8428,148.489 -27.1656,32.8349 -59.6461,49.3468 -97.3236,49.3468 -37.5121,0 -70.6777,-17.5041 -99.4968,-52.5122 -28.8427,-34.9845 -43.1814,-85.9849 -43.1814,-152.67z"
     id="path93" /></glyph>
   <glyph
   unicode="y"
   horiz-adv-x="500"
   id="glyph95"><path
     d="M62.0084 -199.655l-9.85047 82.4888c19.3466,-5.17327 36.0003,-7.84258 50.339,-7.84258 19.512,0 35.1735,3.33073 46.8429,9.85047 11.8347,6.49611 21.3309,15.4962 28.8191,27.3309 5.66934,8.66936 14.5041,30.4963 26.8349,65.3391 1.67718,4.98429 4.34649,12.0001 7.84258,21.4962l-196.679 519.5 94.6779 0 108.001 -300.168c13.819,-38.1735 26.5041,-78.166 37.4885,-120.166 10.1812,40.3232 22.1813,79.6542 36.1656,118.158l110.836 302.176 87.8511 0 -197.175 -527.343c-21.1655,-57.0004 -37.6775,-96.1661 -49.3468,-117.662 -15.6615,-29.0081 -33.4963,-50.1736 -53.6461,-63.6619 -20.3387,-13.5119 -44.3389,-20.3387 -72.3313,-20.3387 -17.008,0 -35.8349,3.66145 -56.6697,10.8426z"
     id="path97" /></glyph>
   <glyph
   unicode="t"
   horiz-adv-x="277"
   id="glyph99"><path
     d="M257.837 78.662l12.6615 -77.6699c-24.6616,-5.14965 -46.8429,-7.81896 -66.3312,-7.81896 -32.0081,0 -56.6697,4.98429 -74.3392,15.1655 -17.5041,9.9922 -29.8349,23.3388 -36.9924,39.8271 -7.15754,16.323 -10.8426,51.0004 -10.8426,103.678l0 298.325 -64.4887 0 0 68.3391 64.4887 0 0 128.481 87.4968 52.6776 0 -181.159 88.3472 0 0 -68.3391 -88.3472 0 0 -303.168c0,-25.1577 1.51182,-41.1736 4.51185,-48.3311 3.16538,-7.18116 8.17329,-12.8269 15.1655,-17.1734 6.99218,-4.15751 17.008,-6.33076 30.0002,-6.33076 9.82685,0 22.6773,1.15749 38.6696,3.49609z"
     id="path101" /></glyph>
   <glyph
   unicode="s"
   horiz-adv-x="500"
   id="glyph103"><path
     d="M30.827 154.844l86.8353 13.6537c4.84256,-34.8192 18.4962,-61.4887 40.8428,-80.1739 22.1577,-18.4962 53.339,-27.827 93.4968,-27.827 40.3232,0 70.3234,8.33865 89.8354,24.6616 19.4883,16.5119 29.3388,35.8349 29.3388,57.8508 0,19.9844 -8.66936,35.4806 -26.0081,46.9846 -12.0001,7.84258 -42.0003,17.6694 -89.8354,29.6695 -64.3233,16.3466 -109.158,30.3309 -134.009,42.331 -24.827,11.8347 -43.8192,28.3467 -56.6461,49.3468 -12.8505,21.0002 -19.3466,44.15 -19.3466,69.4966 0,23.1734 5.33862,44.5043 15.9923,64.158 10.5119,19.8427 25.0159,36.1656 43.1814,49.1815 13.6537,9.9922 32.3388,18.6616 55.8193,25.6537 23.6695,6.99218 49.0161,10.5119 76.0163,10.5119 40.6539,0 76.3234,-6.00005 107.15,-17.6694 30.8506,-11.6694 53.5044,-27.4963 68.1738,-47.5043 14.6694,-20.1734 24.6616,-46.8429 30.1656,-80.3392l-85.8196 -11.8347c-4.01578,26.6695 -15.3545,47.5043 -34.016,62.5044 -18.6616,15.0001 -45.1657,22.512 -79.3235,22.512 -40.3468,0 -69.1659,-6.68509 -86.3393,-20.008 -17.3387,-13.3466 -26.0081,-29.0081 -26.0081,-46.8429 0,-11.504 3.68507,-21.6616 10.8426,-30.827 7.15754,-9.49614 18.3309,-17.1734 33.6617,-23.5041 8.83472,-3.16538 34.6774,-10.6536 77.6699,-22.323 62.1737,-16.6773 105.497,-30.1656 129.993,-40.8428 24.6852,-10.4883 44.0082,-26.0081 58.0162,-46.1578 13.9844,-20.1734 21.0002,-45.1657 21.0002,-75.1659 0,-29.3388 -8.66936,-56.8351 -25.6774,-82.8432 -17.1734,-25.8191 -41.835,-45.8271 -74.0085,-60.0005 -32.1499,-14.1733 -68.6462,-21.1655 -109.324,-21.1655 -67.4887,0 -118.82,14.008 -154.159,42.0003 -35.3389,27.9923 -57.8508,69.4966 -67.5123,124.513z"
     id="path105" /></glyph>
   <glyph
   unicode="v"
   horiz-adv-x="500"
   id="glyph107"><path
     d="M210.002 0l-197.34 518.508 92.8354 0 111.332 -310.514c12.0001,-33.4963 23.0081,-68.3155 33.1656,-104.505 7.84258,27.3545 18.6616,60.1895 32.6695,98.6701l115.347 316.349 90.3314 0 -196.348 -518.508 -81.9928 0z"
     id="path109" /></glyph>
   <glyph
   unicode="r"
   horiz-adv-x="333"
   id="glyph111"><path
     d="M65.0084 0l0 518.508 78.9927 0 0 -78.4967c20.1734,36.6617 38.835,60.9926 56.0083,72.662 16.9844,11.6694 35.8349,17.6694 56.3154,17.6694 29.6695,0 59.6698,-9.51976 90.3314,-28.3467l-30.3309 -81.6621c-21.3309,12.8269 -42.8271,19.1576 -64.3233,19.1576 -19.3466,0 -36.4964,-5.83469 -51.8272,-17.3151 -15.3308,-11.6694 -26.1734,-27.6853 -32.6695,-48.1657 -9.82685,-31.1813 -14.6694,-65.3391 -14.6694,-102.52l0 -271.49 -87.8275 0z"
     id="path113" /></glyph>
  </font>
</defs>
</svg>
